<?xml version="1.0" standalone="no"?>
<!DOCTYPE svg PUBLIC "-//W3C//DTD SVG 1.1//EN" "http://www.w3.org/Graphics/SVG/1.1/DTD/svg11.dtd" >
<svg xmlns="http://www.w3.org/2000/svg">
<metadata>Generated by IcoMoon</metadata>
<defs>
<font id="thinline" horiz-adv-x="512">
<font-face units-per-em="512" ascent="480" descent="-32" />
<missing-glyph horiz-adv-x="512" />
<glyph unicode="&#x20;" d="" horiz-adv-x="256" />
<glyph unicode="&#xe600;" d="M251.169 37.056c3.085-3.085 7.266-4.82 11.635-4.82s8.55 1.736 11.635 4.82l102.538 102.548c6.428 6.428 6.428 16.842 0 23.273l-0.798 0.798c2.481 0.763 4.854 1.92 6.82 3.884l15.921 15.933c6.428 6.428 6.428 16.842 0 23.273l-0.798 0.798c2.481 0.763 4.854 1.92 6.82 3.884l15.921 15.934c6.428 6.428 6.428 16.842 0 23.273l-160.761 160.771c-3.492 3.505-8.228 5.207-13.33 4.736l-95.573-9.826c-9.022-0.932-15.601-9.011-14.679-18.053 0.942-9.042 8.829-15.611 18.066-14.689l87.772 9.021 143.596-143.595-4.286-4.296c-1.964-1.964-3.118-4.337-3.884-6.817l-139.623 139.627c-3.515 3.505-8.187 5.218-13.33 4.736l-95.573-9.825c-9.022-0.932-15.6-9.011-14.679-18.053 0.942-9.055 8.894-15.504 18.066-14.69l87.772 9.022 143.596-143.596-4.286-4.296c-1.964-1.964-3.118-4.337-3.884-6.817l-139.625 139.632c-3.492 3.505-8.228 5.217-13.33 4.736l-95.575-9.826c-7.908-0.814-14.121-7.188-14.722-15.14l-6.986-92.713c-0.364-4.779 1.392-9.482 4.779-12.869l160.784-160.781zM124.395 287.216l74.082 7.619 143.595-143.596-79.265-79.275-143.81 143.81 5.399 71.442zM194.32 241.81c0-12.196-9.887-22.082-22.083-22.082s-22.083 9.887-22.083 22.083c0 12.196 9.887 22.083 22.083 22.083 12.196 0 22.083-9.887 22.083-22.083z" />
<glyph unicode="&#xe601;" d="M374.339 206.579l-138.923 138.934c-3.018 3.029-7.055 4.462-11.518 4.093l-82.59-8.491c-6.833-0.704-12.203-6.213-12.723-13.084l-6.037-80.12c-0.315-4.13 1.203-8.195 4.129-11.12l138.941-138.941c2.668-2.668 6.277-4.168 10.055-4.168s7.388 1.5 10.055 4.168l88.609 88.62c5.555 5.555 5.555 14.556 0 20.111zM275.673 128.015l-124.278 124.275 4.667 61.739 64.018 6.584 124.091-124.091-68.498-68.508zM216.489 274.791c0-10.539-8.543-19.082-19.082-19.082-10.539 0-19.082 8.543-19.082 19.082 0 10.539 8.543 19.082 19.082 19.082 10.539 0 19.082-8.543 19.082-19.082z" />
<glyph unicode="&#xe602;" d="M68.936 400.443v-350.428c0-9.267 7.519-16.786 16.786-16.786h335.719c9.267 0 16.786 7.519 16.786 16.786v350.428c0 9.267-7.519 16.786-16.786 16.786h-335.719c-9.267 0-16.786-7.519-16.786-16.786zM343.017 66.8v316.856h22.382v-316.856h-22.382zM404.654 66.8h-16.873v316.856h16.873v-316.856zM102.507 383.657h218.13v-316.856h-218.13v316.856z" />
<glyph unicode="&#xe603;" d="M254.116 349.476l-98.442-52.762h-81.835c-8.153 0-14.769-6.615-14.769-14.768v-110.011c0-8.154 6.615-14.769 14.769-14.769h81.835l98.452-52.749c2.173-1.162 4.577-1.751 6.971-1.751 2.624 0 5.25 0.702 7.586 2.096 4.452 2.673 7.183 7.481 7.183 12.672v219.021c0 5.191-2.731 10-7.183 12.672-4.459 2.665-9.989 2.78-14.566 0.348zM246.328 142.111l-79.972 42.846c-2.145 1.144-4.539 1.751-6.971 1.751h-70.779v80.469h70.779c2.432 0 4.828 0.607 6.981 1.751l79.962 42.854v-169.671zM452.124 163.804v142.087c0 8.336-6.764 15.096-15.096 15.096s-15.096-6.763-15.096-15.096v-142.087c0-8.336 6.764-15.096 15.096-15.096s15.096 6.761 15.096 15.096zM389.916 182.999v103.688c0 8.336-6.764 15.096-15.096 15.096s-15.096-6.764-15.096-15.096v-103.688c0-8.336 6.764-15.096 15.096-15.096s15.096 6.761 15.096 15.096zM327.708 197.548v74.601c0 8.336-6.764 15.096-15.096 15.096-8.336 0-15.096-6.764-15.096-15.096v-74.603c0-8.336 6.764-15.096 15.096-15.096 8.336 0 15.096 6.764 15.096 15.099z" />
<glyph unicode="&#xe604;" d="M259.236 349.476l-98.442-52.762h-81.835c-8.153 0-14.769-6.615-14.769-14.768v-110.011c0-8.154 6.615-14.769 14.769-14.769h81.835l98.452-52.749c2.173-1.162 4.577-1.751 6.971-1.751 2.624 0 5.25 0.702 7.586 2.096 4.452 2.673 7.183 7.481 7.183 12.672v219.021c0 5.191-2.731 10-7.183 12.672-4.459 2.665-9.989 2.78-14.567 0.348zM251.448 142.111l-79.972 42.846c-2.145 1.144-4.539 1.751-6.971 1.751h-70.779v80.469h70.779c2.432 0 4.828 0.607 6.981 1.751l79.962 42.854v-169.671zM443.863 282.877c-5.77 5.77-15.114 5.77-20.885 0l-26.985-26.985-26.985 26.985c-5.77 5.77-15.114 5.77-20.885 0-5.77-5.77-5.77-15.114 0-20.885l26.983-26.985-26.985-26.985c-5.77-5.77-5.77-15.114 0-20.885 2.885-2.885 6.663-4.327 10.442-4.327s7.557 1.442 10.442 4.327l26.985 26.985 26.985-26.985c2.885-2.885 6.663-4.327 10.442-4.327s7.557 1.442 10.442 4.327c5.77 5.77 5.77 15.114 0 20.885l-26.985 26.985 26.985 26.985c5.77 5.77 5.77 15.117 0.002 20.885z" />
<glyph unicode="&#xe605;" d="M305.316 349.476l-98.442-52.762h-81.835c-8.153 0-14.769-6.615-14.769-14.768v-110.011c0-8.154 6.615-14.769 14.769-14.769h81.835l98.452-52.749c2.173-1.162 4.577-1.751 6.971-1.751 2.624 0 5.25 0.702 7.586 2.096 4.452 2.673 7.183 7.481 7.183 12.672v219.021c0 5.191-2.731 10-7.183 12.672-4.459 2.665-9.989 2.78-14.567 0.348zM297.529 142.111l-79.972 42.846c-2.145 1.144-4.539 1.751-6.971 1.751h-70.779v80.469h70.779c2.432 0 4.828 0.607 6.981 1.751l79.962 42.857v-169.674zM383.818 283.835c-7.7 0-13.947-6.247-13.947-13.947v-75.269c0-7.7 6.247-13.947 13.947-13.947s13.947 6.247 13.947 13.947v75.267c0 7.7-6.247 13.95-13.947 13.95z" />
<glyph unicode="&#xe606;" d="M62.275 33.598h104.763v104.763h-104.763v-104.763zM86.269 114.365h56.773v-56.773h-56.773v56.773zM201.856 33.598h104.763v104.763h-104.763v-104.763zM225.851 114.365h56.773v-56.773h-56.773v56.773zM446.198 33.598v104.763h-104.763v-104.763h104.763zM365.43 114.365h56.773v-56.773h-56.773v56.773zM446.198 417.597h-244.342v-244.342h244.342v244.342zM410.204 209.247h-172.357v172.357h172.357v-172.357zM289.132 330.322h69.791v-69.791h-69.791v69.791zM167.037 417.597h-104.763v-244.342h31.529v88.182h73.234v26.192h-73.234v94.96h73.234zM121.019 223.79h45.589v-45.589h-45.589v45.589zM121.019 358.594h45.589v-45.589h-45.589v45.589z" />
<glyph unicode="&#xe607;" d="M277.56 416.341h-48.402c-37.274 0-64.537-30.498-64.537-67.763v-67.766h-5.648c-24.911 0-39.529-12.495-39.529-37.404v-170.957c0-24.909 14.618-40.108 39.529-40.108h180.705c24.911 0 50.824 15.199 50.824 40.108v170.954c0 23.027-22.149 35.423-45.176 37.166v68.004c-0.002 37.269-30.498 67.766-67.766 67.766zM187.208 348.575c0 24.909 17.040 45.176 41.951 45.176h48.402c24.911 0 45.176-20.267 45.176-45.176v-67.766h-135.529v67.766zM367.913 243.405v-170.957c0-12.423-15.81-17.52-28.237-17.52h-180.706c-12.423 0-16.94 5.094-16.94 17.52v170.957c0 12.423 4.516 14.817 16.94 14.817h180.703c1.83 0 3.733-0.059 5.647-0.19 11.095-0.743 22.592-4.032 22.592-14.628zM254.38 206.003c-14.077 0-25.488-11.413-25.488-25.488 0-9.413 5.115-17.613 12.706-22.026l-4.982-42.442h35.528l-4.982 42.442c7.591 4.416 12.705 12.615 12.705 22.026 0 14.075-11.413 25.488-25.488 25.488z" />
<glyph unicode="&#xe608;" d="M79.647 340.119h350.428c9.267 0 16.786 7.518 16.786 16.786 0 9.267-7.519 16.786-16.786 16.786h-350.428c-9.267 0-16.786-7.519-16.786-16.786s7.519-16.786 16.786-16.786zM79.647 246.651h342.649c9.267 0 16.786 7.518 16.786 16.786 0 9.267-7.519 16.786-16.786 16.786h-342.649c-9.267 0-16.786-7.518-16.786-16.786 0-9.267 7.519-16.786 16.786-16.786zM79.647 164.601h342.649c9.267 0 16.786 7.519 16.786 16.786s-7.519 16.786-16.786 16.786h-342.649c-9.267 0-16.786-7.519-16.786-16.786s7.519-16.786 16.786-16.786zM79.647 76.452h342.649c9.267 0 16.786 7.519 16.786 16.786s-7.519 16.786-16.786 16.786h-342.649c-9.267 0-16.786-7.519-16.786-16.786s7.519-16.786 16.786-16.786z" />
<glyph unicode="&#xe609;" d="M77.808 245.154c-8.153 0-14.769-6.615-14.769-14.768v-170.509c0-8.154 6.615-14.769 14.769-14.769h67.297c8.154 0 14.768 6.615 14.768 14.769v170.506c0 8.154-6.615 14.768-14.768 14.768h-37.397c6.71 74.747 69.627 133.55 146.089 133.55s139.379-58.8 146.089-133.548h-34.916c-8.154 0-14.769-6.615-14.769-14.768v-170.509c0-8.154 6.615-14.769 14.769-14.769h67.298c8.154 0 14.769 6.615 14.769 14.769v170.506c0 8.154-6.615 14.768-14.769 14.768h-2.841c-6.8 91.044-82.877 163.088-175.629 163.088s-168.827-72.043-175.626-163.085h-0.364zM417.502 74.642h-37.76v140.971h37.76v-140.971zM130.338 74.642h-37.76v140.971h37.76v-140.971z" />
<glyph unicode="&#xe60a;" d="M367.572 315.881c-0.259 5.509-3.577 10.404-8.576 12.711l-192.766 88.615c-4.595 2.114-9.912 1.731-14.144-0.99-4.232-2.711-6.797-7.404-6.797-12.432v-200.601c0-0.182 0-0.366 0-0.538v-153.313c0-8.154 6.615-14.769 14.768-14.769 8.154 0 14.768 6.615 14.768 14.769v145.101l185.429 107.978c4.759 2.77 7.586 7.962 7.317 13.47zM174.825 228.613v152.123l145.997-67.113-145.997-85.010z" />
<glyph unicode="&#xe60b;" d="M223.939 387.75v-322.063c0-17.106 13.863-30.969 30.969-30.969s30.968 13.863 30.968 30.969v322.063c0 17.106-13.863 30.969-30.969 30.969s-30.969-13.863-30.969-30.969zM446.907 57.413v338.611c0 10.258-8.322 18.581-18.58 18.581s-18.581-8.323-18.581-18.581v-338.614c0-10.258 8.322-18.58 18.581-18.58 10.258 0.002 18.581 8.325 18.581 18.583zM354.005 41.31c6.848 0 12.388 5.54 12.388 12.388v346.041c0 6.848-5.54 12.388-12.388 12.388-6.848 0-12.388-5.54-12.388-12.388v-346.041c0-6.848 5.54-12.388 12.388-12.388zM137.229 396.024v-338.614c0-10.258 8.322-18.58 18.581-18.58s18.581 8.322 18.581 18.581v338.614c0 10.258-8.322 18.58-18.581 18.58s-18.581-8.322-18.581-18.58zM62.907 396.024v-338.614c0-10.258 8.323-18.58 18.581-18.58s18.581 8.322 18.581 18.581v338.614c0 10.258-8.323 18.58-18.581 18.58s-18.581-8.322-18.581-18.58z" />
<glyph unicode="&#xe60c;" d="M234.383 33.239c94.823 0 171.955 77.141 171.955 171.965 0 22.183-4.155 43.748-12.365 64.123-3.038 7.577-11.673 11.202-19.21 8.182-7.557-3.049-11.231-11.653-8.174-19.22 6.769-16.845 10.212-34.701 10.212-53.084 0-78.536-63.882-142.428-142.418-142.428s-142.418 63.892-142.418 142.428 63.882 142.428 142.418 142.428c11.335 0 22.443-1.47 33.285-4.071l-18.729-7.516c-7.577-3.038-11.249-11.643-8.213-19.21 2.327-5.77 7.864-9.27 13.712-9.27 1.828 0 3.691 0.336 5.499 1.058l55.421 22.249c7.577 3.029 11.248 11.625 8.212 19.2l-23.212 57.882c-3.038 7.578-11.635 11.259-19.21 8.213-7.577-3.038-11.248-11.635-8.212-19.21l10.852-27.067c-15.954 4.79-32.502 7.278-49.411 7.278-94.825 0-171.955-77.14-171.955-171.965s77.136-171.963 171.96-171.963z" />
<glyph unicode="&#xe60d;" d="M254.863 91.546c-14.894 0-29.374 2.627-43.213 7.522l24.446 12.519c7.25 3.712 10.135 12.615 6.423 19.873-3.712 7.229-12.577 10.173-19.883 6.413l-48.94-25.047c-7.25-3.712-10.135-12.615-6.423-19.873l26.153-51.106c2.617-5.104 7.787-8.038 13.174-8.038 2.25 0 4.557 0.519 6.713 1.625 7.25 3.712 10.135 12.615 6.423 19.873l-6.313 12.334c13.442-3.623 27.285-5.632 41.447-5.632 87.921 0 159.457 71.536 159.457 159.458 0 20.518-3.845 40.517-11.443 59.44-3.057 7.567-11.635 11.28-19.21 8.202-7.577-3.038-11.248-11.635-8.212-19.2 6.192-15.414 9.326-31.71 9.326-48.44-0.005-71.644-58.291-129.923-129.923-129.923zM95.406 221.466c0-22.308 4.539-43.901 13.46-64.19 2.442-5.529 7.847-8.817 13.519-8.817 1.999 0 4.019 0.404 5.962 1.25 7.463 3.289 10.846 12.009 7.557 19.471-7.268 16.51-10.962 34.104-10.962 52.286 0 71.642 58.286 129.92 129.92 129.92 9.132 0 18.11-0.976 26.887-2.821l-13.926-5.594c-7.577-3.038-11.248-11.635-8.212-19.2 2.327-5.77 7.865-9.27 13.712-9.27 1.828 0 3.692 0.336 5.499 1.067l51.018 20.48c7.577 3.038 11.248 11.635 8.212 19.2l-21.384 53.276c-3.057 7.577-11.653 11.269-19.21 8.202-7.577-3.038-11.248-11.635-8.212-19.2l9.134-22.759c-14.080 3.996-28.626 6.154-43.517 6.154-87.921 0-159.458-71.536-159.458-159.457z" />
<glyph unicode="&#xe60e;" d="M254.863 416.863c-105.866 0-192-86.134-192-192s86.134-192 192-192 192 86.134 192 192-86.137 192-192 192zM254.863 62.4c-89.577 0-162.463 72.886-162.463 162.463s72.886 162.463 162.463 162.463 162.463-72.886 162.463-162.463-72.886-162.463-162.463-162.463zM233.593 292.669c-4.595 2.683-10.268 2.693-14.866 0.028-4.615-2.673-7.424-7.606-7.365-12.933l1.116-110.183c0.059-5.25 2.903-10.087 7.463-12.682 2.268-1.288 4.787-1.933 7.309-1.933 2.558 0 5.115 0.663 7.424 2l93.924 54.538c4.539 2.634 7.347 7.49 7.347 12.741 0 5.261-2.77 10.114-7.309 12.78l-95.043 55.644zM241.767 195.246l-0.596 58.76 50.673-29.683-50.076-29.077z" />
<glyph unicode="&#xe60f;" d="M77.276 176.423c-8.153 0-14.769-6.615-14.769-14.769v-112.683c0-8.154 6.615-14.769 14.769-14.769h354.462c8.154 0 14.769 6.615 14.769 14.769v112.683c0 8.154-6.615 14.769-14.769 14.769s-14.769-6.615-14.769-14.769v-97.913h-324.925v97.913c0 8.154-6.615 14.769-14.769 14.769z" />
<glyph unicode="&#xe610;" d="M404.565 375.111c-26.926 26.926-62.718 41.751-100.8 41.751-38.072 0-73.856-14.825-100.762-41.751-26.934-26.916-41.758-62.707-41.758-100.79 0-32.822 11.075-63.916 31.37-89.124l-125.716-125.765c-6.080-6.080-6.080-15.941 0-22.011 3.041-3.041 7.022-4.56 11.005-4.56s7.964 1.521 11.005 4.56l125.712 125.76c25.198-20.301 56.3-31.385 89.144-31.385 38.072 0 73.866 14.825 100.81 41.741 55.524 55.577 55.524 146.002-0.010 201.575zM382.556 195.55c-21.048-21.038-49.037-32.62-78.789-32.62-29.762 0-57.723 11.584-78.75 32.62-21.048 21.048-32.64 49.017-32.64 78.771 0 29.762 11.594 57.733 32.64 78.779 21.028 21.038 48.996 32.63 78.75 32.63 29.762 0 57.743-11.594 78.779-32.63 43.402-43.433 43.402-114.117 0.010-157.55zM358.254 286.087h-105.595c-8.594 0-15.565-6.971-15.565-15.565s6.971-15.565 15.565-15.565h105.595c8.594 0 15.565 6.971 15.565 15.565s-6.971 15.565-15.565 15.565z" />
<glyph unicode="&#xe611;" d="M66.898 37.422c3.041-3.041 7.022-4.56 11.005-4.56s7.964 1.521 11.005 4.56l125.712 125.76c25.198-20.301 56.3-31.385 89.144-31.385 38.072 0 73.866 14.825 100.81 41.741 55.524 55.572 55.524 145.997-0.010 201.572-26.926 26.926-62.718 41.751-100.8 41.751-38.072 0-73.856-14.825-100.762-41.751-26.934-26.913-41.758-62.704-41.758-100.787 0-32.822 11.075-63.915 31.37-89.124l-125.716-125.765c-6.080-6.080-6.080-15.938 0-22.011zM225.014 353.101c21.028 21.038 48.996 32.63 78.75 32.63 29.762 0 57.743-11.594 78.779-32.63 43.402-43.433 43.402-114.117 0.010-157.55-21.048-21.038-49.037-32.62-78.789-32.62-29.762 0-57.723 11.584-78.75 32.62-21.048 21.048-32.64 49.017-32.64 78.771 0 29.762 11.594 57.731 32.64 78.779zM252.659 254.956h37.233v-37.232c0-8.594 6.971-15.565 15.565-15.565s15.565 6.971 15.565 15.565v37.233h37.233c8.594 0 15.565 6.971 15.565 15.565s-6.971 15.565-15.565 15.565h-37.233v37.233c0 8.594-6.971 15.565-15.565 15.565s-15.565-6.971-15.565-15.565v-37.233h-37.233c-8.594 0-15.565-6.971-15.565-15.565s6.971-15.565 15.565-15.565z" />
<glyph unicode="&#xe612;" d="M326.599 341.565c0 41.229-33.541 74.77-74.77 74.77s-74.77-33.538-74.77-74.77 33.541-74.77 74.77-74.77 74.77 33.541 74.77 74.77zM207.78 341.565c0 24.29 19.761 44.050 44.050 44.050s44.050-19.76 44.050-44.050-19.76-44.050-44.050-44.050-44.050 19.76-44.050 44.050zM136.681 133.548v-101.209h30.72v101.209c0 47.329 39.749 85.839 88.599 85.839s88.599-38.51 88.599-85.839v-101.209h30.72v101.209c0 64.269-53.529 116.56-119.319 116.56s-119.319-52.291-119.319-116.56z" />
<glyph unicode="&#xe613;" d="M254.863 416.863c-105.866 0-192-86.134-192-192s86.134-192 192-192 192 86.134 192 192-86.137 192-192 192zM254.863 62.4c-89.577 0-162.463 72.886-162.463 162.463s72.886 162.463 162.463 162.463 162.463-72.886 162.463-162.463-72.886-162.463-162.463-162.463zM268.229 325.594c-5.77 5.77-15.114 5.77-20.885 0l-92.762-92.769c-5.77-5.77-5.77-15.114 0-20.885 2.885-2.885 6.663-4.327 10.442-4.327 3.779 0 7.557 1.442 10.442 4.327l65.587 65.595v-131.364c0-8.154 6.615-14.769 14.768-14.769s14.768 6.615 14.768 14.769v135.288l65.595-65.587c5.77-5.77 15.114-5.77 20.885 0 5.77 5.77 5.77 15.114 0 20.885l-88.842 88.837z" />
<glyph unicode="&#xe614;" d="M124.157 305.661v-271.509h253.886v271.509h-29.817v-241.692h-49.695v234.463h-29.817v-234.463h-42.452v234.463h-29.816v-234.463h-42.473v241.692zM99.31 367.557h310.817v-29.817h-310.817v29.817zM200.505 418.153h108.434v-29.817h-108.434v29.817z" />
<glyph unicode="&#xe615;" d="M254.863 32.863c105.866 0 192 86.134 192 192s-86.134 192-192 192-192-86.134-192-192 86.134-192 192-192zM254.863 387.323c89.577 0 162.463-72.886 162.463-162.462s-72.886-162.462-162.463-162.462-162.463 72.886-162.463 162.463 72.886 162.463 162.463 162.463zM333.747 143.757c2.711-2.135 5.942-3.172 9.134-3.172 4.365 0 8.691 1.923 11.615 5.614 5.058 6.405 3.961 15.693-2.442 20.749l-82.425 65.067v100.019c0 8.154-6.615 14.769-14.768 14.769s-14.768-6.615-14.768-14.769v-107.172c0-4.518 2.076-8.789 5.617-11.597l88.039-69.509z" />
<glyph unicode="&#xe616;" d="M430.075 417.229h-350.428c-9.267 0-16.786-7.518-16.786-16.786v-350.428c0-9.267 7.519-16.786 16.786-16.786h350.428c9.267 0 16.786 7.519 16.786 16.786v350.428c0 9.267-7.519 16.786-16.786 16.786zM204.493 179.364v91.755h100.716v-91.755h-100.716zM305.209 145.792v-78.989h-100.716v78.989h100.716zM96.433 271.12h74.488v-91.756h-74.489v91.755zM204.493 304.691v78.966h100.716v-78.966h-100.716zM338.78 271.12h74.509v-91.756h-74.509v91.755zM413.289 304.691h-74.509v78.966h74.509v-78.966zM170.921 383.657v-78.966h-74.489v78.966h74.489zM96.433 145.792h74.488v-78.989h-74.489v78.989zM338.78 66.8v78.992h74.509v-78.989h-74.509z" />
<glyph unicode="&#xe617;" d="M79.647 417.229c-9.267 0-16.786-7.518-16.786-16.786v-350.428c0-9.267 7.519-16.786 16.786-16.786h350.428c9.267 0 16.786 7.519 16.786 16.786v350.428c0 9.267-7.519 16.786-16.786 16.786h-350.428zM96.433 271.12h74.488v-91.756h-74.489v91.755zM204.493 271.12h208.796v-91.756h-208.796v91.755zM413.289 304.691h-208.796v78.966h208.796v-78.966zM170.921 383.657v-78.966h-74.489v78.966h74.489zM96.433 145.792h74.488v-78.989h-74.489v78.989zM204.493 66.8v78.992h208.796v-78.989h-208.796z" />
<glyph unicode="&#xe618;" d="M79.647 33.229h350.428c9.267 0 16.786 7.519 16.786 16.786v350.428c0 9.267-7.519 16.786-16.786 16.786h-350.428c-9.267 0-16.786-7.519-16.786-16.786v-350.428c0-9.267 7.519-16.786 16.786-16.786zM96.433 208.443h141.632v-141.642h-141.632v141.642zM271.637 66.8v141.642h141.652v-141.642h-141.653zM413.289 242.014h-141.653v141.642h141.653v-141.642zM238.065 383.657v-141.642h-141.632v141.642h141.632z" />
<glyph unicode="&#xe619;" d="M432.702 284.935h-108.365l-55.414 122.442c-4.769 10.578-22.134 10.578-26.903 0l-55.414-122.442h-108.365c-6.078 0-11.538-3.722-13.75-9.385-2.222-5.662-0.74-12.106 3.73-16.231l80.346-74.25-35.115-129.479c-1.567-5.778 0.51-11.932 5.251-15.577 4.749-3.653 11.241-4.039 16.412-1.067l120.356 69.847 120.356-69.847c2.299-1.326 4.866-1.989 7.414-1.989 3.182 0 6.356 1.029 9.001 3.057 4.741 3.646 6.817 9.797 5.25 15.577l-35.115 129.479 80.346 74.25c4.473 4.124 5.952 10.567 3.73 16.231-2.212 5.663-7.673 9.385-13.75 9.385z" />
<glyph unicode="&#xe61a;" d="M446.451 275.55c-2.212 5.662-7.673 9.385-13.75 9.385h-108.365l-55.414 122.442c-4.769 10.578-22.134 10.578-26.903 0l-55.414-122.442h-108.365c-6.078 0-11.538-3.722-13.75-9.385-2.222-5.662-0.74-12.106 3.73-16.231l80.346-74.25-35.115-129.479c-1.567-5.778 0.51-11.932 5.251-15.577 4.759-3.653 11.241-4.039 16.412-1.067l120.356 69.847 120.356-69.847c2.299-1.326 4.866-1.989 7.414-1.989 3.182 0 6.356 1.029 9.001 3.057 4.741 3.646 6.817 9.797 5.25 15.577l-35.115 129.479 80.346 74.25c4.47 4.124 5.952 10.565 3.73 16.231zM335.76 200.686c-4.048-3.73-5.673-9.403-4.231-14.712l28.058-103.442-96.702 56.115c-2.288 1.326-4.856 1.989-7.414 1.989s-5.125-0.663-7.414-1.989l-96.702-56.115 28.058 103.442c1.441 5.307-0.182 10.98-4.232 14.712l-59.2 54.71h80.153c5.798 0 11.067 3.394 13.453 8.684l45.886 101.383 45.885-101.383c2.384-5.289 7.654-8.684 13.453-8.684h80.154l-59.205-54.71z" />
<glyph unicode="&#xe61b;" d="M371.525 400.722v-350.262c0-9.313 7.557-16.87 16.87-16.87s16.87 7.557 16.87 16.87v350.262c0 9.313-7.557 16.87-16.87 16.87s-16.87-7.557-16.87-16.87zM281.557 317.453v-266.99c0-9.313 7.557-16.87 16.87-16.87s16.87 7.557 16.87 16.87v266.99c0 9.313-7.557 16.87-16.87 16.87-9.316-0.002-16.87-7.557-16.87-16.87zM101.614 157.686v-107.226c0-9.313 7.557-16.87 16.87-16.87s16.87 7.557 16.87 16.87v107.226c0 9.313-7.557 16.87-16.87 16.87s-16.87-7.557-16.87-16.87zM191.585 233.94v-183.478c0-9.313 7.557-16.87 16.87-16.87s16.87 7.557 16.87 16.87v183.478c0 9.314-7.557 16.87-16.87 16.87-9.314-0.002-16.87-7.557-16.87-16.87z" />
<glyph unicode="&#xe61c;" d="M78.889 34.58c3.993 0 7.964 1.521 11.005 4.56l125.716 125.765c25.201-20.306 56.31-31.388 89.142-31.388 38.082 0 73.877 14.825 100.81 41.741 55.514 55.572 55.514 145.997 0 201.572-26.937 26.926-62.728 41.751-100.79 41.751-38.082 0-73.876-14.825-100.769-41.751-26.939-26.926-41.774-62.72-41.774-100.793 0-32.819 11.079-63.913 31.375-89.118l-125.722-125.77c-6.080-6.080-6.080-15.941 0-22.011 3.041-3.038 7.012-4.557 11.005-4.557zM226.012 354.818c21.038 21.038 49.006 32.63 78.761 32.63s57.743-11.594 78.779-32.63c43.392-43.433 43.392-114.117 0-157.55-21.058-21.038-49.026-32.62-78.799-32.62-29.752 0-57.723 11.584-78.74 32.62-21.059 21.048-32.65 49.017-32.65 78.771s11.591 57.731 32.65 78.779z" />
<glyph unicode="&#xe61d;" d="M432.699 88.305c1.779 0 3.587 0.317 5.337 1.001 7.606 2.942 11.385 11.5 8.433 19.106l-90.555 233.715c-2.952 7.624-11.538 11.374-19.106 8.433-7.606-2.941-11.385-11.5-8.433-19.106l90.555-233.715c2.268-5.854 7.854-9.433 13.767-9.433zM72.909 89.305c1.758-0.683 3.558-1.001 5.338-1.001 5.913 0 11.499 3.587 13.767 9.433l90.555 233.715c2.952 7.606-0.827 16.164-8.433 19.106-7.644 2.952-16.164-0.816-19.106-8.433l-90.555-233.715c-2.952-7.606 0.827-16.164 8.433-19.106zM255.47 246.784c8.153 0 14.768 6.615 14.768 14.769v83.333c0 8.154-6.615 14.769-14.768 14.769s-14.768-6.615-14.768-14.769v-83.336c0-8.151 6.615-14.766 14.768-14.766zM240.702 103.074c0-8.154 6.615-14.769 14.768-14.769s14.768 6.615 14.768 14.769v83.346c0 8.154-6.615 14.769-14.768 14.769s-14.768-6.615-14.768-14.769v-83.346z" />
<glyph unicode="&#xe61e;" d="M68.867 38.257c3.597-3.597 8.307-5.394 13.017-5.394s9.421 1.797 13.017 5.394l160.571 160.571 160.571-160.571c3.597-3.597 8.307-5.394 13.017-5.394s9.421 1.797 13.017 5.394c7.191 7.191 7.191 18.844 0 26.035l-160.571 160.571 160.571 160.571c7.191 7.191 7.191 18.844 0 26.035s-18.844 7.191-26.035 0l-160.571-160.571-160.571 160.571c-7.191 7.191-18.844 7.191-26.035 0s-7.191-18.844 0-26.035l160.571-160.571-160.571-160.571c-7.194-7.191-7.194-18.841 0-26.035z" />
<glyph unicode="&#xe61f;" d="M76.867 211.466h165.209v-165.209c0-7.396 6-13.397 13.397-13.397s13.396 6 13.396 13.397v165.209h165.209c7.396 0 13.397 6 13.397 13.397s-6 13.397-13.397 13.397h-165.209v165.207c0 7.396-6 13.397-13.397 13.397s-13.397-6-13.397-13.397v-165.209h-165.209c-7.396 0-13.397-6-13.397-13.397s6.001-13.394 13.397-13.394z" />
<glyph unicode="&#xe620;" d="M78.316 34.729c1.5 0 3.021 0.205 4.501 0.622l121.157 34.381c3.758 1.067 6.541 3.694 8.678 6.825l228.382 228.382c6.428 6.428 6.428 16.842 0 23.27l-85.691 85.691c-6.172 6.172-17.101 6.172-23.27 0l-228.352-228.352c-3.156-2.146-5.801-4.935-6.868-8.712l-34.37-121.168c-1.628-5.742-0.020-11.904 4.201-16.125 3.126-3.123 7.324-4.815 11.633-4.815zM102.188 75.070l18.686 65.828 47.142-47.142-65.828-18.685zM343.705 378.998l62.421-62.421-205.734-205.734-62.421 62.421 205.734 205.735z" />
<glyph unicode="&#xe621;" d="M417.587 378.695l-240.397-268.741-83.648 117.873c-5.33 7.577-15.9 9.387-23.468 3.991-7.588-5.383-9.388-15.9-3.991-23.488l95.865-135.089c2.962-4.178 7.675-6.776 12.787-7.074 0.307-0.010 0.635-0.023 0.942-0.023 4.782 0 9.344 2.027 12.544 5.614l254.454 284.478c6.205 6.93 5.614 17.579-1.316 23.785-6.95 6.198-17.587 5.627-23.772-1.326z" />
<glyph unicode="&#xe622;" d="M196.644 327.089c7.803 3.133 11.591 12.009 8.448 19.812-3.154 7.813-12.017 11.602-19.812 8.448-20.923-8.41-39.672-20.823-55.716-36.887-31.552-31.542-48.934-73.474-48.934-118.085 0-44.601 17.383-86.543 48.924-118.075 31.522-31.542 73.454-48.914 118.065-48.904 44.611 0 86.553 17.372 118.113 48.904 65.047 65.116 65.047 171.044-0.010 236.168-14.277 14.259-30.738 25.682-48.914 33.95-7.626 3.461-16.688 0.1-20.168-7.555-3.481-7.654-0.1-16.688 7.555-20.167 14.853-6.753 28.308-16.103 39.979-27.774 53.197-53.238 53.197-139.85 0.010-193.085-25.8-25.779-60.099-39.98-96.569-39.98-36.47-0.010-70.748 14.19-96.517 39.98-25.799 25.789-40.010 60.078-40.010 96.538 0 36.47 14.208 70.759 40.020 96.558 13.133 13.138 28.452 23.283 45.535 30.154zM269.148 289.559v112.61c0 8.409-6.822 15.23-15.23 15.23s-15.23-6.823-15.23-15.23v-112.612c0-8.41 6.822-15.23 15.23-15.23s15.23 6.822 15.23 15.232z" />
<glyph unicode="&#xe623;" d="M122.501 34.416c4.462 0 9.040 0.384 13.673 1.183 16.617 2.875 31.483 10.721 41.905 22.106 10.468 11.449 15.219 25.728 13.734 39.613 0.002 0.13 0.074 0.238 0.074 0.368v228.337l224.066 56.031-0.336-194.775c-12.621 6.131-28.091 8.688-44.723 5.767-35.694-6.172-60.598-35.154-55.501-64.599 4.423-25.549 29.233-43.387 60.311-43.387 4.462 0 9.039 0.374 13.673 1.183 34.522 5.97 58.688 33.288 55.644 61.712 0.002 0.118 0.069 0.217 0.069 0.338l0.443 252.654c0 4.557-2.076 8.855-5.673 11.663-3.577 2.798-8.289 3.817-12.675 2.693l-253.645-63.424c-6.577-1.643-11.192-7.55-11.192-14.329v-200.916c-12.611 6.098-28.053 8.647-44.656 5.776-16.617-2.875-31.483-10.721-41.904-22.106-11.192-12.242-16.154-27.733-13.596-42.501 4.424-25.541 29.212-43.377 60.308-43.387zM384.338 115.353c-19.673-3.451-37.617 5.279-39.829 18.135-2.288 13.163 12.116 27.115 31.424 30.454 2.923 0.51 5.808 0.75 8.615 0.75 16.192 0 29.327-7.943 31.212-18.885 2.291-13.166-12.111-27.118-31.421-30.454zM97.597 100.37c5.924 6.482 15.079 11.192 25.136 12.933 2.924 0.499 5.808 0.75 8.635 0.75 16.192 0 29.309-7.943 31.194-18.885 1.346-7.788-3.367-14.329-6.29-17.529-5.924-6.482-15.078-11.192-25.137-12.933-2.923-0.499-5.808-0.75-8.635-0.75-16.192 0-29.309 7.943-31.194 18.885-1.344 7.79 3.367 14.329 6.29 17.529z" />
<glyph unicode="&#xe624;" d="M80.927 207.409h349.092c9.639 0 17.454 7.815 17.454 17.454s-7.815 17.454-17.454 17.454h-349.092c-9.638 0-17.454-7.815-17.454-17.454s7.813-17.454 17.454-17.454z" />
<glyph unicode="&#xe625;" d="M61.148 207.654l21.425-21.266 17.866 17.991v-155.489h30.19v185.894l124.042 124.93 122.274-130.47v-180.355h30.19v148.275l16-17.060 22.014 20.659-189.847 202.427z" />
<glyph unicode="&#xe626;" d="M412.841 361.106c-21.548 21.558-50.214 33.438-80.707 33.438-29.844 0-55.033-10.672-78.118-33.858l-0.074-0.092c-0.292 0.32-0.594 0.622-0.914 0.914-22.407 22.228-47.46 33.039-76.582 33.039-30.502 0-59.187-11.87-80.745-33.438-21.547-21.558-33.421-50.222-33.421-80.707 0-30.457 11.853-59.113 33.346-80.653l132.869-133.957c6.758-6.832 16.154-10.757 25.774-10.757s19.023 3.925 25.774 10.736l132.833 133.929c21.54 21.568 33.403 50.222 33.403 80.699 0.002 30.484-11.878 59.149-33.438 80.707z" />
<glyph unicode="&#xe627;" d="M332.135 394.547c-29.844 0-55.033-10.673-78.118-33.859l-0.074-0.092c-0.292 0.32-0.594 0.622-0.914 0.914-22.407 22.226-47.46 33.037-76.582 33.037-30.502 0-59.187-11.87-80.745-33.438-21.547-21.558-33.421-50.222-33.421-80.707 0-30.457 11.853-59.113 33.346-80.653l132.869-133.957c6.758-6.832 16.154-10.757 25.774-10.757s19.023 3.925 25.774 10.736l132.833 133.929c21.54 21.568 33.403 50.222 33.403 80.699 0 30.484-11.881 59.149-33.438 80.707-21.548 21.56-50.212 33.441-80.707 33.441zM392.957 219.53l-132.877-133.986c-3.065-3.082-8.532-3.1-11.614 0.018l-132.915 134.003c-16.236 16.261-25.17 37.865-25.17 60.834 0 22.983 8.945 44.588 25.188 60.841 16.254 16.253 37.875 25.209 60.877 25.209 21.768 0 39.916-8.013 56.369-24.366l10.719-12.713c2.716-3.228 6.933-5.204 10.939-4.994 4.217 0.064 8.177 2.012 10.801 5.314l9.712 12.357c16.656 16.645 34.821 24.402 57.147 24.402 22.983 0 44.587-8.955 60.834-25.208 16.261-16.254 25.216-37.865 25.216-60.841s-8.942-44.58-25.224-60.869z" />
<glyph unicode="&#xe628;" d="M239.411 219.098v-157.842h-51.981c-8.074 0-14.623-6.551-14.623-14.623s6.551-14.623 14.623-14.623h132.485c8.074 0 14.623 6.551 14.623 14.623s-6.551 14.623-14.623 14.623h-51.259v158.256l168.061 169.815c5.673 5.742 5.637 14.994-0.115 20.677-5.75 5.673-15.004 5.627-20.677-0.115l-42.711-43.095h-234.995l-40.205 44.411c-5.406 5.988-14.661 6.425-20.641 1.029-5.998-5.427-6.454-14.671-1.029-20.659l163.067-172.477zM344.286 337.546c0 0-87.716-91.853-89.902-93.156l-89.692 93.156h179.594z" />
<glyph unicode="&#xe629;" d="M79.647 414.669c-9.267 0-16.786-7.519-16.786-16.786v-350.428c0-9.267 7.519-16.786 16.786-16.786h350.428c9.267 0 16.786 7.519 16.786 16.786v350.428c0 9.267-7.519 16.786-16.786 16.786h-350.428zM383.542 239.454h29.747v-33.572h-29.747v33.572zM413.289 273.026h-29.747v33.572h29.747v-33.572zM349.97 239.454h-194.437v141.642h194.437v-141.642zM96.433 239.454h25.529v-33.572h-25.529v33.572zM121.961 273.026h-25.528v33.572h25.529v-33.572zM96.433 172.311h25.529v-33.572h-25.529v33.572zM155.533 205.883h194.437v-141.642h-194.437v141.642zM383.542 172.311h29.747v-33.572h-29.747v33.572zM413.289 340.17h-29.747v40.927h29.747v-40.927zM121.961 381.097v-40.926h-25.528v40.926h25.529zM96.433 105.168h25.529v-40.926h-25.529v40.926zM383.542 64.24v40.926h29.747v-40.926h-29.747z" />
<glyph unicode="&#xe62a;" d="M79.647 30.669h350.428c9.267 0 16.786 7.519 16.786 16.786v237.202c0 4.874-2.12 9.498-5.793 12.688l-64.543 55.887-57.549 56.62c-0.755 0.743-1.733 1.134-2.599 1.712-0.911 0.615-1.71 1.378-2.736 1.805-2.025 0.842-4.204 1.303-6.446 1.303h-227.548c-9.267 0-16.786-7.519-16.786-16.786v-350.428c0-9.27 7.519-16.788 16.786-16.788zM385.072 301.442h-61.089v56.402l29.767-29.268 31.322-27.134zM96.433 381.097h193.979v-96.443c0-9.267 7.519-16.786 16.786-16.786h106.091v-203.627h-316.856v316.856z" />
<glyph unicode="&#xe62b;" d="M286.449 55.623c73.851 0 136.387 48.054 158.313 114.56h-30.712c-20.628-50.233-70.021-85.724-127.601-85.724-59.362 0-109.936 37.765-129.344 90.476h58.9c7.068 0 12.803 5.735 12.803 12.803s-5.734 12.803-12.803 12.803h-65.587c-1.144 7.137-1.905 14.4-1.905 21.854 0 3.75 0.269 7.434 0.563 11.108h66.929c7.068 0 12.803 5.734 12.803 12.803s-5.734 12.803-12.803 12.803h-62.375c16.131 58.266 69.491 101.223 132.821 101.223 60.245 0 111.457-38.887 130.204-92.826h30.218c-19.694 70.157-83.973 121.659-160.423 121.659-79.472 0-145.84-55.639-162.581-130.055h-48.197c-7.068 0-12.803-5.734-12.803-12.803s5.735-12.803 12.803-12.803h44.57c-0.243-3.689-0.561-7.357-0.561-11.108 0-7.426 0.653-14.684 1.595-21.855h-45.604c-7.068 0-12.803-5.735-12.803-12.803s5.735-12.803 12.803-12.803h50.957c20.452-68.969 84.216-119.312 159.818-119.312z" />
<glyph unicode="&#xe62c;" d="M77.629 56.297h354.462c8.154 0 14.769 6.615 14.769 14.769v308.329c0 0.738-0.315 1.37-0.42 2.076-0.149 1.040-0.243 2.053-0.617 3.054-0.384 1.024-0.993 1.879-1.584 2.782-0.377 0.581-0.546 1.242-1.014 1.779-0.113 0.128-0.274 0.177-0.389 0.3-0.743 0.798-1.656 1.351-2.56 1.971-0.707 0.484-1.337 1.070-2.104 1.418-0.768 0.351-1.628 0.44-2.46 0.656-1.047 0.269-2.055 0.596-3.134 0.632-0.174 0.005-0.317 0.1-0.491 0.1h-354.457c-0.174 0-0.317-0.094-0.492-0.1-1.078-0.036-2.084-0.363-3.131-0.632-0.832-0.218-1.695-0.305-2.463-0.656-0.766-0.346-1.392-0.935-2.097-1.416-0.903-0.62-1.823-1.175-2.565-1.974-0.115-0.123-0.276-0.171-0.389-0.3-0.469-0.537-0.635-1.2-1.014-1.779-0.591-0.903-1.203-1.756-1.584-2.782-0.374-0.998-0.468-2.014-0.617-3.054-0.105-0.709-0.42-1.339-0.42-2.076v-308.327c0.002-8.156 6.617-14.771 14.771-14.771zM92.398 85.837v261.135l152.768-132.887c2.77-2.414 6.231-3.625 9.692-3.625s6.922 1.211 9.692 3.625l152.768 132.887v-261.135h-324.921zM117.112 364.624h275.495l-137.746-119.816-137.749 119.815z" />
<glyph unicode="&#xe62d;" d="M446.863 224.863c0 105.866-86.134 192-192 192s-192-86.134-192-192 86.134-192 192-192 192 86.134 192 192zM254.863 62.4c-89.577 0-162.463 72.886-162.463 162.463s72.886 162.463 162.463 162.463 162.463-72.886 162.463-162.463-72.886-162.463-162.463-162.463zM334.267 237.796l-65.587-65.587v131.356c0 8.154-6.615 14.768-14.768 14.768-8.154 0-14.768-6.615-14.768-14.768v-135.298l-65.597 65.597c-5.77 5.77-15.114 5.77-20.885 0s-5.77-15.114 0-20.884l88.837-88.837c2.885-2.885 6.663-4.327 10.442-4.327s7.557 1.442 10.442 4.327l92.769 92.769c5.77 5.77 5.77 15.114 0 20.885-5.77 5.768-15.117 5.768-20.885 0z" />
<glyph unicode="&#xe62e;" d="M255.452 154.503c39.519 0 71.654 31.567 71.654 70.375 0 38.769-32.135 70.308-71.654 70.308-39.481 0-71.596-31.539-71.596-70.308 0-38.807 32.115-70.375 71.596-70.375zM255.452 265.646c23.232 0 42.115-18.288 42.115-40.768 0-22.521-18.885-40.837-42.114-40.837-23.191 0-42.058 18.317-42.058 40.837 0.002 22.48 18.867 40.768 42.058 40.768zM115.858 173.302l3.942-9.357c-20.999-47.644-21.020-51.779-13.23-59.413l27.769-27.202 4.71-4.144h5.865c3.018 0 7.98 0 48.768 18.471l10-4.058c20.058-49.385 22.942-51 33.173-51h38.904c10.903 0 14.057 3.269 32 51.221l9.981 4.048c41.48-17.49 46.538-17.5 49.326-17.5l6.462 0.115 32.038 31.202c7.865 7.788 7.749 12.337-14.288 58.75l3.961 9.357c49.231 19.115 52.231 22 52.231 32.809v38.126c0 11.115-3.018 13.97-52.403 31.665l-3.961 9.375c20.982 47.644 21.020 51.779 13.212 59.51l-27.52 26.819-4.769 4.385h-6.077c-3.038 0-8.021 0-48.73-18.394l-9.981 4.019c-20.096 49.567-22.73 51.029-33.134 51.029h-38.942c-10.923 0-14.057-3.269-31.923-51.231l-9.982-4.029c-41.538 17.462-46.654 17.462-49.462 17.462l-6.5-0.115-32.192-31.483c-7.539-7.836-7.424-11.942 14.558-58.442l-3.96-9.395c-49.231-19.029-52.231-21.913-52.231-32.768v-38.116c0-11.136 3.018-14 52.386-31.711zM93.010 234.581c8.73 3.96 25.078 10.596 39.173 16.010l5.865 2.261 13.962 33.162-2.826 5.97c-6.21 13.048-13.174 28.434-16.73 37.181l15.288 14.961c8.981-3.192 25.577-9.874 39.634-15.836l5.635-2.394 33.403 13.499 2.25 6.134c5.038 13.625 11.269 29.499 15.058 38.057h22.039c4.058-8.499 10.885-24.558 16.443-38.356l2.345-5.827 33.385-13.461 5.77 2.634c13.558 6.192 29.616 13.143 38.444 16.537l15.365-14.96c-3.328-8.875-10.020-24.798-15.979-38.28l-2.596-5.837 13.962-33.106 6.134-2.184c13.924-4.962 30.116-11.067 38.904-14.797v-20.808c-8.729-3.961-25.078-10.624-39.173-16.059l-5.827-2.25-14.039-33.124 2.865-6.011c6.231-13.010 13.212-28.393 16.75-37.135l-15.365-14.981c-8.962 3.213-25.479 9.894-39.481 15.856l-5.655 2.404-33.403-13.548-2.268-6.096c-5.058-13.635-11.328-29.519-15.114-38.067h-22.057c-4.040 8.481-10.885 24.53-16.443 38.308l-2.327 5.808-33.385 13.568-5.809-2.654c-13.558-6.211-29.617-13.181-38.462-16.606l-15.327 15.030c3.328 8.865 10.020 24.76 15.98 38.242l2.596 5.837-13.962 33.086-6.116 2.183c-13.942 4.962-30.134 11.087-38.904 14.817v20.831z" />
<glyph unicode="&#xe62f;" d="M383.962 241.994c-5.504 0-11.003-0.806-16.358-2.37-5.335 59.725-52.457 106.59-109.614 106.59-44.871 0-85.499-29.865-102.106-73.825-4.606 0.947-9.049 1.415-13.422 1.415-43.351 0-78.623-37.655-78.623-83.942s35.272-83.942 78.623-83.942h241.5c35.221 0 63.877 30.523 63.877 68.037s-28.656 68.037-63.877 68.037zM383.962 127.654h-241.5c-31.365 0-56.886 27.906-56.886 62.208s25.52 62.208 56.886 62.208c5.2 0 10.747-1.040 16.973-3.184 2.823-0.983 5.957-0.75 8.589 0.65 2.652 1.393 4.613 3.82 5.419 6.707 11.192 40.174 45.962 68.237 84.544 68.237 48.734 0 88.379-43.146 88.379-96.177 0-0.955-0.064-1.897-0.12-2.837l-0.12-2.073c-0.169-4.055 1.925-7.875 5.44-9.899 3.53-2.017 7.875-1.918 11.292 0.276 6.7 4.308 13.803 6.487 21.099 6.487 23.235 0 42.142-20.774 42.142-46.303s-18.903-46.3-42.137-46.3z" />
<glyph unicode="&#xe630;" d="M76.867 211.466h146.268l-103.421-103.421c-5.233-5.233-5.233-13.709 0-18.942 2.617-2.616 6.044-3.925 9.472-3.925s6.856 1.308 9.472 3.925l103.422 103.421v-146.268c0-7.396 6-13.397 13.397-13.397s13.397 6 13.397 13.397v146.276l103.429-103.429c2.616-2.616 6.044-3.925 9.472-3.925s6.856 1.308 9.472 3.925c5.233 5.233 5.233 13.709 0 18.942l-103.421 103.421h146.258c7.396 0 13.397 6 13.397 13.397s-6 13.397-13.397 13.397h-146.268l103.429 103.429c5.233 5.232 5.233 13.709 0 18.941s-13.709 5.233-18.942 0l-103.429-103.429v146.266c0 7.396-6 13.396-13.397 13.396s-13.397-6-13.397-13.396v-146.258l-103.424 103.421c-5.232 5.233-13.709 5.233-18.942 0s-5.233-13.709 0-18.941l103.429-103.429h-146.276c-7.396 0-13.397-6-13.397-13.397s6.001-13.397 13.397-13.397z" />
<glyph unicode="&#xe631;" d="M196.644 327.089c7.803 3.133 11.591 12.009 8.448 19.812-3.154 7.813-12.017 11.602-19.812 8.448-20.923-8.41-39.672-20.823-55.716-36.887-31.552-31.542-48.934-73.474-48.934-118.085 0-44.601 17.383-86.543 48.924-118.075 31.522-31.542 73.454-48.914 118.065-48.904 44.611 0 86.553 17.372 118.113 48.904 65.047 65.116 65.047 171.044-0.010 236.168-14.277 14.259-30.738 25.682-48.914 33.95-7.626 3.461-16.688 0.1-20.168-7.555-3.481-7.654-0.1-16.688 7.555-20.167 14.853-6.753 28.308-16.103 39.979-27.774 53.197-53.238 53.197-139.85 0.010-193.085-25.8-25.779-60.099-39.98-96.569-39.98-36.47-0.010-70.748 14.19-96.517 39.98-25.799 25.789-40.010 60.078-40.010 96.538 0 36.47 14.208 70.759 40.020 96.558 13.133 13.138 28.452 23.283 45.535 30.154zM269.148 289.559v112.61c0 8.409-6.822 15.23-15.23 15.23s-15.23-6.823-15.23-15.23v-112.612c0-8.41 6.822-15.23 15.23-15.23s15.23 6.822 15.23 15.232z" />
</font>
</defs>
</svg>
